v

您的位置:VeryCD音乐华语音乐

音乐资源事务区

 

网友评论:群星 -《2017 香港高级视听展 (原音精选SACD) 纪念版CD》(HONG KONG High-End Audio Visuai Show 2017)SACD转压APE[APE]

 

haijielu (楼主)   2017/09/19 21:14:52  1楼   举报

REM DISCID 2017/09/16
PERFORMER "群星"
TITLE "2017 香港高级视听展 (原音精选SACD) 纪念CD"
FILE "群星.-.[2017 香港高级视听展 (原音精选SACD) 纪念CD].专辑.(APE).ape" WAVE
TRACK 01 AUDIO
TITLE "今宵多珍重"
PERFORMER "陈百强"
TTAGS DCP
INDEX 01 00:00:00
TRACK 02 AUDIO
TITLE "味道"
PERFORMER "辛晓琪"
TTAGS DCP
INDEX 01 03:50:50
TRACK 03 AUDIO
TITLE "Swan Lake/Scene(Act II-No.10)(天鹅湖)"
PERFORMER "Andre Previn/London Symphony Orchestra(普列文/伦敦交响乐团)"
TTAGS DCP
INDEX 01 07:47:39
TRACK 04 AUDIO
TITLE "最爱是谁"
PERFORMER "盧冠廷"
TTAGS DCP
INDEX 01 10:37:01
TRACK 05 AUDIO
TITLE "La Campanella (钟)"
PERFORMER "Salvatore Accardo(Violin), Charles Dutoit/London Philharmonic Orchestra(阿卡多小提琴/伦敦爱乐乐团)"
TTAGS DCP
INDEX 01 15:19:63
TRACK 06 AUDIO
TITLE "Good Vibrations(良好的震动)"
PERFORMER "The King’s Singers(国王歌手合唱团)"
TTAGS DCP
INDEX 01 24:17:65
TRACK 07 AUDIO
TITLE "Vittorio Monti : Csardas(维托里奥·蒙蒂:查尔达斯)"
PERFORMER "Sinfonia Lahti Cello & Bass Ensemble(交响乐拉赫蒂大提琴和低音合奏)"
TTAGS DCP
INDEX 01 28:09:61
TRACK 08 AUDIO
TITLE "红颜白发"
PERFORMER "陆宝"
TTAGS DCP
INDEX 01 34:09:65
TRACK 09 AUDIO
TITLE "Vaughan Williams : Fantasia on‘Greensleeves’(沃恩·威廉斯:绿袖子幻想曲)"
PERFORMER "Sir John Barbirolli / Sinfonia of London(约翰·巴比罗利爵士/伦敦管弦乐团)"
TTAGS DCP
INDEX 01 38:41:73
TRACK 10 AUDIO
TITLE "I’ll Never Fall In Love Again(我永不会坠入爱河)"
PERFORMER "Nicki Parrott(妮基派洛特)"
TTAGS DCP
INDEX 01 43:22:42
TRACK 11 AUDIO
TITLE "Chabrier : Espana Rhapsody(夏布里耶:西班牙狂想曲)"
PERFORMER "Eiji Oue / Minnesota Orchestra(大植英次/明尼苏达管弦乐团)"
TTAGS DCP
INDEX 01 47:14:02
TRACK 12 AUDIO
TITLE "风声鹤唳"
PERFORMER "小刚"
TTAGS DCP
INDEX 01 53:47:59
TRACK 13 AUDIO
TITLE "Midnight in Moscow((莫斯科郊外的晚上)"
PERFORMER "Aida Garifullina(阿伊达)"
TTAGS DCP
INDEX 01 58:55:19
TRACK 14 AUDIO
TITLE "夺丰收"
PERFORMER "李民雄(击乐领奏)、关乃忠 / 高雄市立国乐团"
TTAGS DCP
INDEX 01 61:06:62


[+9] [0] [回复]

乐丽   2017/09/20 10:20:18  2楼   举报

太好了!谢谢楼主分享!


[0] [0] [回复]

qhrmcbs   2017/09/20 11:09:22  3楼   举报

「2017原音精选」一共辑录了14首各种不同类型的音乐,太好了!谢谢楼主分享!


[0] [0] [回复]

yq_d   2017/09/20 11:21:25  4楼   举报

“深思熟虑、费煞思量”的!选曲,2017音响展精品,谢楼主!


[0] [0] [回复]

zhangyu20160   2017/09/20 11:31:38  5楼   举报

感谢楼主无私分享好音乐,支持一下。


[0] [0] [回复]

x1y2z3   2017/09/20 15:06:47  6楼   举报

谢谢,请把SACD音质的也发出了


[0] [0] [回复]

x1y2z3   2017/09/20 15:58:06  7楼   举报

楼主,cue文件更新后,还是不行哩


[0] [0] [回复]

dedc   2017/09/20 16:33:26  8楼   举报

感谢楼主的无私分享!


[0] [0] [回复]

牛头不对马嘴   2017/09/20 17:12:57  9楼   举报

谢谢分享。


[0] [0] [回复]

吃音乐的鲨鱼   2017/09/20 17:18:32  10楼   举报

无法下载啊


[+1] [0] [回复]

老牛弹琴   2017/09/20 17:55:37  11楼   举报

感谢楼主分享美妙的音乐!!!


[0] [0] [回复]

peng_peng   2017/09/20 18:17:35  12楼   举报

感谢分享。。。


[0] [0] [回复]

野狐禅师   2017/09/20 19:23:31  13楼   举报

感谢楼主分享,曲目都是精品,人声特别喜欢。


[0] [0] [回复]

gundamfans4444   2017/09/20 19:46:59  14楼   举报

衷心感谢 O(∩_∩)O 楼主对本辑音乐的精彩推荐介绍与无私分享。


[0] [0] [回复]

daiyun9430   2017/09/20 20:02:09  15楼   举报

感谢楼主分享


[0] [0] [回复]

难播   2017/09/20 20:56:12  16楼   举报

感谢楼主分享!


[0] [0] [回复]

天籁美声   2017/09/20 21:35:03  17楼   举报

衷心感谢 无私分享。


[0] [0] [回复]

DONG東   2017/09/20 21:39:27  18楼   举报

感谢楼主无私分享!!!


[0] [0] [回复]

wolongzj   2017/09/20 22:05:51  19楼   举报

音响展CD必收,感谢分享


[0] [0] [回复]

haijielu (楼主)   2017/09/20 23:32:08  20楼   举报

引用(x1y2z3 @ 2017-09-20, 03:58 PM) *
楼主,cue文件更新后,还是不行哩

CUE需在千千静听才生效


[0] [0] [回复]

hbltwh   2017/09/20 23:56:26  21楼   举报

REM DISCID 2017/09/16
PERFORMER "群星"
TITLE "2017 香港高级视听展 (原音精选SACD) 纪念CD"
FILE "群星.-.[2017 香港高级视听展 (原音精选SACD) 纪念CD].专辑.(APE).ape" WAVE
TRACK 01 AUDIO
TITLE "今宵多珍重"
PERFORMER "陈百强"
INDEX 01 00:00:00
TRACK 02 AUDIO
TITLE "味道"
PERFORMER "辛晓琪"
INDEX 01 03:50:50
TRACK 03 AUDIO
TITLE "Swan Lake/Scene(Act II-No.10)(天鹅湖)"
PERFORMER "Andre Previn/London Symphony Orchestra(普列文/伦敦交响乐团)"
INDEX 01 07:47:39
TRACK 04 AUDIO
TITLE "最爱是谁"
PERFORMER "盧冠廷"
INDEX 01 10:37:01
TRACK 05 AUDIO
TITLE "La Campanella (钟)"
PERFORMER "Salvatore Accardo(Violin), Charles Dutoit/London Philharmonic Orchestra(阿卡多小提琴/伦敦爱乐乐团)"
INDEX 01 15:19:63
TRACK 06 AUDIO
TITLE "Good Vibrations(良好的震动)"
PERFORMER "The King’s Singers(国王歌手合唱团)"
INDEX 01 24:17:65
TRACK 07 AUDIO
TITLE "Vittorio Monti : Csardas(维托里奥·蒙蒂:查尔达斯)"
PERFORMER "Sinfonia Lahti Cello & Bass Ensemble(交响乐拉赫蒂大提琴和低音合奏)"
INDEX 01 28:09:61
TRACK 08 AUDIO
TITLE "红颜白发"
PERFORMER "陆宝"
INDEX 01 34:09:65
TRACK 09 AUDIO
TITLE "Vaughan Williams : Fantasia on‘Greensleeves’(沃恩·威廉斯:绿袖子幻想曲)"
PERFORMER "Nicki Parrott(约翰·巴比罗利爵士/伦敦管弦乐团)"
INDEX 01 38:41:73
TRACK 10 AUDIO
TITLE "I’ll Never Fall In Love Again(我永不会坠入爱河)"
PERFORMER "Nicki Parrott(妮基派洛特)"
INDEX 01 43:22:42
TRACK 11 AUDIO
TITLE "Chabrier : Espana Rhapsody(夏布里耶:西班牙狂想曲)"
PERFORMER "Eiji Oue / Minnesota Orchestra(大植英次/明尼苏达管弦乐团)"
INDEX 01 47:14:02
TRACK 12 AUDIO
TITLE "风声鹤唳"
PERFORMER "小刚"
INDEX 01 53:47:59
TRACK 13 AUDIO
TITLE "Midnight in Moscow((莫斯科郊外的晚上)"
PERFORMER "Aida Garifullina(阿伊达)"
INDEX 01 58:55:19
TRACK 14 AUDIO
TITLE "夺丰收"
PERFORMER "李民雄(击乐领奏)、关乃忠 / 高雄市立国乐团"
INDEX 01 61:06:62


[+2] [0] [回复]

guoping24   2017/09/21 00:06:11  22楼   举报

谢谢楼主分享!


[0] [0] [回复]

lzp0011   2017/09/21 01:42:25  23楼   举报

谢谢楼主分享!


[0] [0] [回复]

1649026234   2017/09/21 08:27:44  24楼   举报

感谢楼主分享!


[0] [0] [回复]

爱听APE   2017/09/21 08:29:19  25楼   举报

感谢楼主无私分享好音乐。


[0] [0] [回复]

sxjy_ma   2017/09/21 09:41:27  26楼   举报

感谢楼主无私分享资源!


[0] [0] [回复]

yrwusa   2017/09/21 13:23:33  27楼   举报

感谢楼主分享


[0] [0] [回复]

vbus   2017/09/21 18:30:30  28楼   举报

REM DISCID 2017/09/16
PERFORMER "群星"
TITLE "2017 香港高级视听展 (原音精选SACD) 纪念CD"
FILE "群星.-.[2017 香港高级视听展 (原音精选SACD) 纪念CD].专辑.(APE).ape" WAVE
TRACK 01 AUDIO
TITLE "今宵多珍重"
PERFORMER "陈百强"
INDEX 01 00:00:00
TRACK 02 AUDIO
TITLE "味道"
PERFORMER "辛晓琪"
INDEX 01 03:50:50
TRACK 03 AUDIO
TITLE "Swan Lake/Scene(Act II-No.10)(天鹅湖)"
PERFORMER "Andre Previn/London Symphony Orchestra(普列文/伦敦交响乐团)"
INDEX 01 07:47:39
TRACK 04 AUDIO
TITLE "最爱是谁"
PERFORMER "盧冠廷"
INDEX 01 10:37:01
TRACK 05 AUDIO
TITLE "La Campanella (钟)"
PERFORMER "Salvatore Accardo(Violin), Charles Dutoit/London Philharmonic Orchestra(阿卡多小提琴/伦敦爱乐乐团)"
INDEX 01 15:19:63
TRACK 06 AUDIO
TITLE "Good Vibrations(良好的震动)"
PERFORMER "The King’s Singers(国王歌手合唱团)"
INDEX 01 24:17:65
TRACK 07 AUDIO
TITLE "Vittorio Monti : Csardas(维托里奥·蒙蒂:查尔达斯)"
PERFORMER "Sinfonia Lahti Cello & Bass Ensemble(交响乐拉赫蒂大提琴和低音合奏)"
INDEX 01 28:09:61
TRACK 08 AUDIO
TITLE "红颜白发"
INDEX 01 34:09:65
TRACK 09 AUDIO
TITLE "Vaughan Williams : Fantasia on‘Greensleeves’(沃恩·威廉斯:绿袖子幻想曲)"
PERFORMER "Sir John Barbirolli / Sinfonia of London(约翰·巴比罗利爵士/伦敦管弦乐团)"
INDEX 01 38:41:73
TRACK 10 AUDIO
TITLE "I’ll Never Fall In Love Again(我永不会坠入爱河)"
PERFORMER "Nicki Parrott(妮基派洛特)"
INDEX 01 43:22:42
TRACK 11 AUDIO
TITLE "Chabrier : Espana Rhapsody(夏布里耶:西班牙狂想曲)"
PERFORMER "Eiji Oue / Minnesota Orchestra(大植英次/明尼苏达管弦乐团)"
INDEX 01 47:14:02
TRACK 12 AUDIO
TITLE "风声鹤唳"
PERFORMER "小刚"
INDEX 01 53:47:59
TRACK 13 AUDIO
TITLE "Midnight in Moscow((莫斯科郊外的晚上)"
PERFORMER "Aida Garifullina(阿伊达)"
INDEX 01 58:55:19
TRACK 14 AUDIO
TITLE "夺丰收"
PERFORMER "李民雄(击乐领奏)、关乃忠 / 高雄市立国乐团"
INDEX 01 61:06:62


[+1] [0] [回复]

vbus   2017/09/21 18:32:26  29楼   举报

上面这个cue用FOOBAR 2000可以打开。
谢谢楼主分享的资源。


[0] [0] [回复]

fundean   2017/09/21 19:04:24  30楼   举报

老酒装新瓶, 还 是那个味道


[0] [0] [回复]

wjh3333   2017/09/21 19:16:24  31楼   举报

感谢楼主无私分享好音乐


[0] [0] [回复]

JerLar   2017/09/21 20:43:28  32楼   举报

感谢楼主的分享!


[0] [0] [回复]

牛头不对马嘴   2017/09/21 20:50:01  33楼   举报

感谢楼主分享。


[0] [0] [回复]

fundean   2017/09/21 21:28:18  34楼   举报

PERFORMER "群星"
TITLE "2017 香港高级视听展 (原音精选SACD) 纪念CD"
REM DATE 2017
FILE "2017 香港高级视听展 (原音精选SACD) 纪念CD.ape" WAVE
TRACK 01 AUDIO
TITLE "今宵多珍重"
PERFORMER "陈百强"

INDEX 01 00:00:00
TRACK 02 AUDIO
TITLE "味道"
PERFORMER "辛晓琪"

INDEX 01 03:50:50
TRACK 03 AUDIO
TITLE "Swan Lake/Scene(Act II-No.10)(天鹅湖)"
PERFORMER "Andre Previn/London Symphony Orchestra(普列文/伦敦交响乐团)"

INDEX 01 07:47:39
TRACK 04 AUDIO
TITLE "最爱是谁"
PERFORMER "盧冠廷"

INDEX 01 10:37:01
TRACK 05 AUDIO
TITLE "La Campanella (钟)"
PERFORMER "Salvatore Accardo(Violin), Charles Dutoit/London Philharmonic Orchestra(阿卡多小提琴/伦敦爱乐乐团)"

INDEX 01 15:19:63
TRACK 06 AUDIO
TITLE "Good Vibrations(良好的震动)"
PERFORMER "The King’s Singers(国王歌手合唱团)"

INDEX 01 24:17:65
TRACK 07 AUDIO
TITLE "Vittorio Monti : Csardas(维托里奥·蒙蒂:查尔达斯)"
PERFORMER "Sinfonia Lahti Cello & Bass Ensemble(交响乐拉赫蒂大提琴和低音合奏)"

INDEX 01 28:09:61
TRACK 08 AUDIO
TITLE "红颜白发"
PERFORMER "陆宝"

INDEX 01 34:09:65
TRACK 09 AUDIO
TITLE "Vaughan Williams : Fantasia on‘Greensleeves’(沃恩·威廉斯:绿袖子幻想曲)"
PERFORMER "Sir John Barbirolli / Sinfonia of London(约翰·巴比罗利爵士/伦敦管弦乐团)"

INDEX 01 38:41:73
TRACK 10 AUDIO
TITLE "I’ll Never Fall In Love Again(我永不会坠入爱河)"
PERFORMER "Nicki Parrott(妮基派洛特)"

INDEX 01 43:22:42
TRACK 11 AUDIO
TITLE "Chabrier : Espana Rhapsody(夏布里耶:西班牙狂想曲)"
PERFORMER "Eiji Oue / Minnesota Orchestra(大植英次/明尼苏达管弦乐团)"

INDEX 01 47:14:02
TRACK 12 AUDIO
TITLE "风声鹤唳"
PERFORMER "小刚"

INDEX 01 53:47:59
TRACK 13 AUDIO
TITLE "Midnight in Moscow((莫斯科郊外的晚上)"
PERFORMER "Aida Garifullina(阿伊达)"

INDEX 01 58:55:19
TRACK 14 AUDIO
TITLE "夺丰收"
PERFORMER "李民雄(击乐领奏)、关乃忠 / 高雄市立国乐团"

INDEX 01 61:06:62

此文件可用于 FOObar 播放器


[0] [-1] [回复]

gundamfans4444   2017/09/21 21:57:32  35楼   举报

衷心感谢 O(∩_∩)O 楼主对本辑音乐的精彩推荐介绍与无私分享。


[0] [0] [回复]

zhuangrui12345   2017/09/21 22:34:34  36楼   举报

感谢分享谢谢


[0] [0] [回复]

qhrmcbs   2017/09/21 23:52:15  37楼   举报

无源啊 无源


[0] [0] [回复]

飞机师輝少   2017/09/22 08:10:59  38楼   举报

感谢楼主无私分享好音乐


[0] [0] [回复]

linixon   2017/09/22 08:13:16  39楼   举报

太好了!谢谢楼主分享!


[0] [0] [回复]

qhrmcbs   2017/09/22 08:18:30  40楼   举报

请楼主放源。近600人在等待呀,叩谢!


[0] [0] [回复]

555555g   2017/09/22 11:15:15  41楼   举报

谢谢楼主的分享


[0] [0] [回复]

mememaomaoyu   2017/09/22 11:37:28  42楼   举报

谢谢楼主的分享


[0] [0] [回复]

88lzx88   2017/09/22 20:13:10  43楼   举报

谢谢,请把SACD音质的也发出了


[0] [0] [回复]

cloud1978   2017/09/23 12:07:46  44楼   举报

没有源啊,加油加油


[+1] [0] [回复]

理不清   2017/09/23 12:58:06  45楼   举报

开闸放水,一直无源。


[+1] [0] [回复]

ThinkPad20090328   2017/09/23 17:13:43  46楼   举报

谢谢你。


[0] [0] [回复]

nbheimdall   2017/09/23 22:48:25  47楼   举报

感谢楼主的无私分享!


[0] [0] [回复]

laizh30   2017/09/23 23:42:50  48楼   举报

好音乐


[0] [0] [回复]

kmzzm   2017/09/24 02:38:44  49楼   举报

谢谢楼主分享


[0] [0] [回复]

dengive   2017/09/24 08:07:13  50楼   举报

谢谢楼主无私分享!


[0] [0] [回复]


    小贴士:
  1. 类似“顶”、“沙发”之类没有营养的文字,对勤劳贡献的楼主来说是令人沮丧的反馈信息。
  2. 提问之前请再仔细看一遍楼主的说明,或许是您遗漏了。
  3. 勿催片。请相信驴友们对分享是富有激情的,如果确有更新版本,您一定能搜索到。
  4. 请勿到处挖坑绊人、招贴广告。既占空间让人厌烦,又没人会搭理,于人于己都无利。
  5. 如果您发现自己的评论不见了,请参考以上4条。

(?) [公告]留口水、评论相关规则 | [活动]每日签到 轻松领取电驴经验